extratorrent - A Fan Made Alternative Login   |   Register
Important Information
Registrations are open now
-------------------------------------

Please click here to register with Extratorrent2 to recieve latest updates, add bookmarks and to post comments.

Friends
Friends

1) ProxyFix

Extratorrent2 > Categories > Movies > 18+ Patient Zero 2018 Movies 720p BluRay x264 5.1 ESubs with Sample ☻rDX☻ torrent


Browse Movies torrents

18+ Patient Zero 2018 Movies 720p BluRay x264 5.1 ESubs with Sample ☻rDX☻ torrent


Download torrent: Download 18+ Patient Zero 2018 Movies 720p BluRay x264 5.1 ESubs with Sample ☻rDX☻ torrent Magnet link Bookmark Torrent: 18+ Patient Zero 2018 Movies 720p BluRay x264 5.1 ESubs with Sample ☻rDX☻   18+ Patient Zero 2018 Movies 720p BluRay x264 5.1 ESubs with Sample ☻rDX☻ torrent
Info hash: 02BF8450A4EE941B5A3565F392EEB15FD644C7CC
Category: Categories > Movies
Trackers:
View all torrent trackers >
Health:
 seeds: 5 ,  leechers: 8 |  Update >
Torrent language: English English
Total Size: 981.4 MB
Files List:
2    View torrent files >
Uploader:
nehalpuja
Torrent added: November 4, 2018, 4:31 pm
IMDB: http://www.imdb.com/title/tt3458254
Users rating: ---, not rated. please login to rate.

Download 18+ Patient Zero 2018 Movies 720p BluRay x264 5.1 ESubs with Sample ☻rDX☻ torrent



Torrent Description

18+ Patient Zero 2018 Movies 720p BluRay x264 5.1 ESubs with Sample ☻rDX☻
===============================================================================================

SCREEN SHOTS:



or

http://iphonehosting.eu/2018/10/call/1.html

File size : 968 MiB
Duration : 1 h 26 min
Overall bit rate : 1 559 kb/s
Movie name : 18+ Patient Zero 2018 Movies 720p BluRay x264 5.1 ESubs ☻rDX☻

Video
ID : 2
Format : AVC
Format/Info : Advanced Video Codec
Format profile :
Format settings, CABAC : Yes
Format settings, ReFrames : 4 frames
Codec ID : V_MPEG4/ISO/AVC
Duration : 1 h 26 min
Bit rate : 1 200 kb/s
Width : 1 280 pixels
Height : 532 pixels
Display aspect ratio : 2.40:1
Frame rate mode : Constant
Frame rate : 23.976 (23976/1000) FPS
Original frame rate : 23.976 (24000/1001) FPS
Color space : YUV
Chroma subsampling : 4:2:0
Bit depth : 8 bits
Scan type : Progressive
Bits/(Pixel*Frame) : 0.073
Stream size : 710 MiB (73%)
Title : ☻rDX☻
Writing library : x264

Audio
ID : 1
Format : AC-3
Format/Info : Audio Coding 3
Mode extension : CM (complete main)
Format settings, Endianness : Big
Codec ID : A_AC3
Duration : 1 h 26 min
Bit rate mode : Constant
Bit rate : 384 kb/s
Channel(s) : 6 channels
Channel positions : Front: L C R, Side: L R, LFE
Sampling rate : 48.0 kHz
Frame rate : 31.250 FPS (1536 spf)
Bit depth : 16 bits
Compression mode : Lossy
Stream size : 238 MiB (25%)
Title : ☻rDX☻
Default : Yes
Forced : No

http://www.imdb.com/title/tt3458254


Download 18+ Patient Zero 2018 Movies 720p BluRay x264 5.1 ESubs with Sample ☻rDX☻ torrent


Related Torrents

Added  Size  Health
Download Magnet link Browse Movies torrent 18+ Patient Zero 2018 Movies 720p BluRay x264 AAC ESubs with Sample ☻rDX☻ in Movies - HD, by
nehalpuja
1m 780.6 MB 5 1



Comments   (please login to add your comment!)


Home - Browse Torrents

Made with love by an Extratorrent Fan!