extratorrent - A Fan Made Alternative Login   |   Register
Important Information
Registrations are open now
-------------------------------------

Please click here to register with Extratorrent2 to recieve latest updates, add bookmarks and to post comments.

Friends
Friends

1) ProxyFix

Extratorrent2 > Categories > Movies > Ballerina 2016 x264 720p Dual Audio [Hindi + Eng] BluRay Esubs Exclusive By Maher torrent


Browse Movies torrents

Ballerina 2016 x264 720p Dual Audio [Hindi + Eng] BluRay Esubs Exclusive By Maher torrent


Download torrent: Download Ballerina 2016 x264 720p Dual Audio [Hindi + Eng] BluRay Esubs Exclusive By Maher torrent Magnet link Bookmark Torrent: Ballerina 2016 x264 720p Dual Audio [Hindi + Eng] BluRay Esubs Exclusive By Maher   Ballerina 2016 x264 720p Dual Audio [Hindi + Eng] BluRay Esubs Exclusive By Maher torrent
Info hash: 57AB76B1CA53EBF4F5FEC23C00A2FFDF9C563111
Category: Categories > Movies
Trackers:
View all torrent trackers >
Health:
 seeds: 11 ,  leechers: 12 |  Update >
Torrent language: Hindi Hindi
Total Size: 801.2 MB
Files List:
2    View torrent files >
Uploader:
maher00
Torrent added: September 2, 2018, 5:20 pm
Tags: animation, comedy, adventure
Users rating: ---, not rated. please login to rate.

Download Ballerina 2016 x264 720p Dual Audio [Hindi + Eng] BluRay Esubs Exclusive By Maher torrent



Torrent Description

Ballerina 2016 x264 720p Dual Audio [Hindi + Eng] BluRay Esubs Exclusive By Maher



SEEDING WILL BE SLOW





-= Life's greatest adventures begin with a single... =-



-= US Title LEAP! =-



-=Exclusive By -=MAHER=-






Format                                   : Matroska
Format version                           : Version 4 / Version 2
File size                                : 772 MiB
Duration                                 : 1 h 29 min
Overall bit rate                         : 1 212 kb/s
Encoded date                             : UTC 2018-08-26 14:17:06
Writing application                      : mkvmerge v9.7.1 ('Pandemonium') 64bit
Writing library                          : libebml v1.3.4 + libmatroska v1.4.5

Video
ID                                       : 1
Format                                   : AVC
Format/Info                              : Advanced Video Codec
Format profile                           :
Format settings                          : CABAC / 4 Ref Frames
Format settings, CABAC                   : Yes
Format settings, RefFrames               : 4 frames
Codec ID                                 : V_MPEG4/ISO/AVC
Duration                                 : 1 h 29 min
Bit rate                                 : 900 kb/s
Width                                    : 1 280 pixels
Height                                   : 544 pixels
Display aspect ratio                     : 2.35:1
Frame rate mode                          : Constant
Frame rate                               : 24.000 FPS
Color space                              : YUV
Chroma subsampling                       : 4:2:0
Bit depth                                : 8 bits
Scan type                                : Progressive
Bits/(Pixel*Frame)                       : 0.054
Stream size                              : 574 MiB (74%)
Writing library                          : x264 core 148
Encoding settings                        : cabac=1 / ref=4 / deblock=1:-1:-1 / analyse=0x3:0x133 / me=umh / subme=9 / psy=1 / psy_rd=1.00:0.15 / mixed_ref=1 / me_range=24 / chroma_me=1 / trellis=2 / 8x8dct=1 / cqm=0 / deadzone=21,11 / fast_pskip=0 / chroma_qp_offset=-3 / threads=12 / lookahead_threads=1 / sliced_threads=0 / nr=0 / decimate=1 / interlaced=0 / bluray_compat=0 / constrained_intra=0 / bframes=3 / b_pyramid=2 / b_adapt=2 / b_bias=0 / direct=3 / weightb=1 / open_gop=0 / weightp=2 / keyint=250 / keyint_min=23 / scenecut=40 / intra_refresh=0 / rc_lookahead=60 / rc=2pass / mbtree=1 / bitrate=900 / ratetol=1.0 / qcomp=0.60 / qpmin=0 / qpmax=69 / qpstep=4 / cplxblur=20.0 / qblur=0.5 / vbv_maxrate=31250 / vbv_bufsize=31250 / nal_hrd=none / filler=0 / ip_ratio=1.40 / aq=1:1.00
Default                                  : Yes
Forced                                   : No

Audio #1
ID                                       : 2
Format                                   : AAC
Format/Info                              : Advanced Audio Codec
Format profile                           : LC
Codec ID                                 : A_AAC-2
Duration                                 : 1 h 29 min
Bit rate                                 : 119 kb/s
Channel(s)                               : 2 channels
Channel positions                        : Front: L R
Sampling rate                            : 48.0 kHz
Frame rate                               : 46.875 FPS (1024 SPF)
Compression mode                         : Lossy
Delay relative to video                  : -43 ms
Stream size                              : 76.1 MiB (10%)
Default                                  : No
Forced                                   : No

Audio #2
ID                                       : 4
Format                                   : AAC
Format/Info                              : Advanced Audio Codec
Format profile                           : LC
Codec ID                                 : A_AAC-2
Duration                                 : 1 h 29 min
Bit rate                                 : 192 kb/s
Channel(s)                               : 2 channels
Channel positions                        : Front: L R
Sampling rate                            : 48.0 kHz
Frame rate                               : 46.875 FPS (1024 SPF)
Compression mode                         : Lossy
Delay relative to video                  : -43 ms
Stream size                              : 121 MiB (16%)
Title                                    : BY-MAHER
Language                                 : Hindi
Default                                  : Yes
Forced                                   : Yes

Text
ID                                       : 3
Format                                   : UTF-8
Codec ID                                 : S_TEXT/UTF8
Codec ID/Info                            : UTF-8 Plain Text
Duration                                 : 1 h 27 min
Bit rate                                 : 58 b/s
Count of elements                        : 1342
Stream size                              : 37.5 KiB (0%)
Default                                  : Yes
Forced                                   : No




Sample Included in Torrent ..!!!



Perfect Sync By MAHER



UNCUT Version



It's PAK Dubbing DTH Audio 1st on Net



Keep Seeding After Download








Download Ballerina 2016 x264 720p Dual Audio [Hindi + Eng] BluRay Esubs Exclusive By Maher torrent


Related Torrents


Comments   (please login to add your comment!)

slava     family with benefits     lust for gold     ipod     05 11     bollywood actress nude     women seeking women 69     the purge     murk     olympus has fallen 2013 hindi     momxxx     lootera     scenes 2015     piss     anal mermaids     uncensored punishment     twin betrayal     21footart hevc     breakfast     game of thrones s07e03 480p     schoolboy q     pornstar platinum     new desi indian horny     hap     


Home - Browse Torrents

Made with love by an Extratorrent Fan!