extratorrent - A Fan Made Alternative Login   |   Register
Important Information
Registrations are open now
-------------------------------------

Please click here to register with Extratorrent2 to recieve latest updates, add bookmarks and to post comments.

Friends
Friends

1) ProxyFix

Extratorrent2 > Categories > Movies > A Aa (2016) UnCut 720p HDRip x264 ESubs -[Dual Audio]-[Hindi DD2.0 + Telugu] - 1.4GB [MovCr] torrent


Browse Movies torrents

A Aa (2016) UnCut 720p HDRip x264 ESubs -[Dual Audio]-[Hindi DD2.0 + Telugu] - 1.4GB [MovCr] torrent


Download torrent: Download A Aa (2016) UnCut 720p HDRip x264 ESubs -[Dual Audio]-[Hindi DD2.0 + Telugu] - 1.4GB [MovCr] torrent Magnet link Bookmark Torrent: A Aa (2016) UnCut 720p HDRip x264 ESubs -[Dual Audio]-[Hindi DD2.0 + Telugu] - 1.4GB [MovCr]   A Aa (2016) UnCut 720p HDRip x264 ESubs -[Dual Audio]-[Hindi DD2.0 + Telugu] - 1.4GB [MovCr] torrent
Info hash: A0156372ADFE1663DA1079AA86882060ED1D0762
Category: Categories > Movies
Trackers:
View all torrent trackers >
Health:
 seeds: 28 ,  leechers: 12 |  Update >
Torrent language: Hindi Hindi
Total Size: 1.4 GB
Files List:
1    View torrent files >
Uploader:
ictv
Torrent added: September 2, 2018, 5:21 pm
Tags: "Comedy", "Drama", "Romance"
IMDB: http://www.imdb.com/title/tt5684466
Users rating: ---, not rated. please login to rate.

Download A Aa (2016) UnCut 720p HDRip x264 ESubs -[Dual Audio]-[Hindi DD2.0 + Telugu] - 1.4GB [MovCr] torrent



Torrent Description

Our Site www.movcr.com


A Aa (2016) UnCut 720p HDRip x264 ESubs -[Dual Audio]-[Hindi DD2.0 + Telugu] - 1.4GB [MovCr]



http://www.imdb.com/title/tt5684466/





General
Unique ID : 188688431734206926409800851004983529226 (0x8DF411F100536E7030E6465B2992CF0A)
Complete name : www.MovCr.com - A Aa (2016) UnCut 720p HDRip x264 ESubs -[Dual Audio]-[Hindi DD2.0 + Telugu] - 1.4GB [MovCr].mkv
Format : Matroska
Format version : Version 4 / Version 2
File size : 1.37 GiB
Duration : 2 h 24 min
Overall bit rate mode : Variable
Overall bit rate : 1 358 kb/s
Movie name : www.MovCr.com
Encoded date : UTC 2018-08-26 11:48:46
Writing application : mkvmerge v23.0.0 ('The Bride Said No') 64-bit
Writing library : libebml v1.3.6 + libmatroska v1.4.9

Video
ID : 1
Format : AVC
Format/Info : Advanced Video Codec
Format profile :
Format settings : CABAC / 4 Ref Frames
Format settings, CABAC : Yes
Format settings, RefFrames : 4 frames
Codec ID : V_MPEG4/ISO/AVC
Duration : 2 h 24 min
Bit rate : 1 164 kb/s
Width : 1 280 pixels
Height : 616 pixels
Display aspect ratio : 2.078
Frame rate mode : Constant
Frame rate : 25.000 FPS
Color space : YUV
Chroma subsampling : 4:2:0
Bit depth : 8 bits
Scan type : Progressive
Bits/(Pixel*Frame) : 0.059
Stream size : 1.17 GiB (86%)
Title : www.MovCr.com
Writing library : x264 core 155 r2901 7d0ff22
Encoding settings : cabac=1 / ref=3 / deblock=1:0:0 / analyse=0x3:0x113 / me=hex / subme=7 / psy=1 / psy_rd=1.00:0.00 / mixed_ref=1 / me_range=16 / chroma_me=1 / trellis=1 / 8x8dct=1 / cqm=0 / deadzone=21,11 / fast_pskip=1 / chroma_qp_offset=-2 / threads=19 / lookahead_threads=3 / sliced_threads=0 / nr=0 / decimate=1 / interlaced=0 / bluray_compat=0 / constrained_intra=0 / bframes=3 / b_pyramid=2 / b_adapt=1 / b_bias=0 / direct=1 / weightb=1 / open_gop=0 / weightp=2 / keyint=250 / keyint_min=25 / scenecut=40 / intra_refresh=0 / rc_lookahead=40 / rc=2pass / mbtree=1 / bitrate=1164 / ratetol=1.0 / qcomp=0.60 / qpmin=0 / qpmax=69 / qpstep=4 / cplxblur=20.0 / qblur=0.5 / ip_ratio=1.40 / aq=1:1.00
Language : Telugu
Default : Yes
Forced : No

Audio #1
ID : 2
Format : MPEG Audio
Format version : Version 1
Format profile : Layer 3
Format settings : Joint stereo / MS Stereo
Codec ID : A_MPEG/L3
Codec ID/Hint : MP3
Duration : 2 h 24 min
Bit rate mode : Variable
Bit rate : 96.0 kb/s
Channel(s) : 2 channels
Sampling rate : 44.1 kHz
Frame rate : 38.281 FPS (1152 SPF)
Compression mode : Lossy
Stream size : 98.6 MiB (7%)
Title : www.MovCr.com
Writing library : LAME3.99r
Encoding settings : -m j -V 4 -q 3 -lowpass 15.1 --abr 96
Language : Hindi
Default : Yes
Forced : No

Audio #2
ID : 3
Format : MPEG Audio
Format version : Version 1
Format profile : Layer 3
Format settings : Joint stereo / MS Stereo
Codec ID : A_MPEG/L3
Codec ID/Hint : MP3
Duration : 2 h 24 min
Bit rate mode : Variable
Bit rate : 96.0 kb/s
Channel(s) : 2 channels
Sampling rate : 44.1 kHz
Frame rate : 38.281 FPS (1152 SPF)
Compression mode : Lossy
Stream size : 98.5 MiB (7%)
Title : www.MovCr.com
Writing library : LAME3.99r
Encoding settings : -m j -V 4 -q 3 -lowpass 15.1 --abr 96
Language : Telugu
Default : No
Forced : No

Text
ID : 4
Format : UTF-8
Codec ID : S_TEXT/UTF8
Codec ID/Info : UTF-8 Plain Text
Duration : 2 h 21 min
Bit rate : 48 b/s
Count of elements : 811
Stream size : 49.8 KiB (0%)
Title : www.MovCr.com
Language : English
Default : No
Forced : No




Download A Aa (2016) UnCut 720p HDRip x264 ESubs -[Dual Audio]-[Hindi DD2.0 + Telugu] - 1.4GB [MovCr] torrent


Related Torrents


Comments   (please login to add your comment!)

dual audio hindi     recorder     2016 blu hindi     sherlock the great game     pornfidelity lana rhoades     2001 hindi bluray     kissing jessica stein 2001     men in black 1997     the square 2008     jaimes     documentaries     sarah     the wedding ringer hevc     suresh     calvin harris flac     best porn pack     hairy pussy     hindi s 720p     cam 4     gog 1954     quick heal     rikki nyx     worms armageddon     18 xxx     


Home - Browse Torrents

Made with love by an Extratorrent Fan!