extratorrent - A Fan Made Alternative Login   |   Register
Important Information
Registrations are open now
-------------------------------------

Please click here to register with Extratorrent2 to recieve latest updates, add bookmarks and to post comments.

Friends
Friends

1) ProxyFix

Extratorrent2 > Categories > Movies > BlacKkKlansman 2018 1080p WEB-DL DD 5.1 x264 [MW] torrent


Browse Movies torrents

BlacKkKlansman 2018 1080p WEB-DL DD 5.1 x264 [MW] torrent


Download torrent: Download BlacKkKlansman 2018 1080p WEB-DL DD 5.1 x264 [MW] torrent Magnet link Bookmark Torrent: BlacKkKlansman 2018 1080p WEB-DL DD 5.1 x264 [MW]   BlacKkKlansman 2018 1080p WEB-DL DD 5.1 x264 [MW] torrent
Info hash: ADE689813633F5FB404C1DFF31BD4BBE14EA6585
Category: Categories > Movies
Trackers:
View all torrent trackers >
Health:
 seeds: 29 ,  leechers: 5 |  Update >
Torrent language: English English
Total Size: 2.2 GB
Files List:
1    View torrent files >
Uploader:
moviezworldz
Torrent added: November 4, 2018, 4:30 pm
Tags: Biography, Comedy, Crime
Users rating: ---, not rated. please login to rate.

Download BlacKkKlansman 2018 1080p WEB-DL DD 5.1 x264 [MW] torrent



Torrent Description





General
Format : Matroska
Format version : Version 4 / Version 2
File size : 2.23 GiB
Duration : 2 h 14 min
Overall bit rate : 2 371 kb/s

Video
ID : 1
Format : AVC
Format/Info : Advanced Video Codec
Format profile :
Format settings : CABAC / 4 Ref Frames
Format settings, CABAC : Yes
Format settings, RefFrames : 4 frames
Codec ID : V_MPEG4/ISO/AVC
Duration : 2 h 14 min
Bit rate : 2 000 kb/s
Width : 1 920 pixels
Height : 802 pixels
Display aspect ratio : 2.40:1
Frame rate mode : Constant
Frame rate : 23.976 (24000/1001) FPS
Color space : YUV
Chroma subsampling : 4:2:0
Bit depth : 8 bits
Scan type : Progressive
Bits/(Pixel*Frame) : 0.054
Stream size : 1.87 GiB (84%)
Writing library : x264 core 155 r2901 7d0ff22
Default : Yes
Forced : No

Audio
ID : 2
Format : AC-3
Format/Info : Audio Coding 3
Codec ID : A_AC3
Duration : 2 h 14 min
Bit rate mode : Constant
Bit rate : 384 kb/s
Channel(s) : 6 channels
Channel positions : Front: L C R, Side: L R, LFE
Sampling rate : 48.0 kHz
Frame rate : 31.250 FPS (1536 SPF)
Bit depth : 16 bits
Compression mode : Lossy
Stream size : 370 MiB (16%)
Service kind : Complete Main
Default : Yes
Forced : No


Click To Enlarge Image








Download BlacKkKlansman 2018 1080p WEB-DL DD 5.1 x264 [MW] torrent


Related Torrents


Comments   (please login to add your comment!)

lego the     incest     karol     1080p hindi dtone     modus s01e06     fury 1080p     nubiles split scenes     noor 2017     naomi     abba hd     ps 1350 les miserables     the girl in the spider web     in the aisles     muhammad the messenger of god     stepmom fucked     premiumbukkake kira thorn     theatre     aj applegate convincing     org dd     abuseme nicole ray     terminator salvation     eset 11     15 mb     classic     


Home - Browse Torrents

Made with love by an Extratorrent Fan!