extratorrent - A Fan Made Alternative Login   |   Register
Important Information
Registrations are open now
-------------------------------------

Please click here to register with Extratorrent2 to recieve latest updates, add bookmarks and to post comments.

Friends
Friends

1) ProxyFix

Extratorrent2 > Categories > Movies > Oceans 8 2018 Movies BRRip x264 5.1 with Sample ☻rDX☻ torrent


Browse Movies torrents

Oceans 8 2018 Movies BRRip x264 5.1 with Sample ☻rDX☻ torrent


Ocean's Eight (2018)
Name: Ocean's Eight
Released Year: 2018
Runtime: 110 mins
Gener: Action, Comedy, Crime
Director: Gary Ross
Country: USA
IMDB Rating: 6.3/10
Plot: Debbie Ocean gathers an all-female crew to attempt an impossible heist at New York City's yearly Met Gala.

Download torrent: Download Oceans 8 2018 Movies BRRip x264 5.1 with Sample ☻rDX☻ torrent Magnet link Bookmark Torrent: Oceans 8 2018 Movies BRRip x264 5.1 with Sample ☻rDX☻   Oceans 8 2018 Movies BRRip x264 5.1 with Sample ☻rDX☻ torrent
Info hash: 0763630E00FDE503FE41BED1941602E60BC9D00E
Category: Categories > Movies
Trackers:
View all torrent trackers >
Health:
 seeds: 7 ,  leechers: 10 |  Update >
Torrent language: English English
Total Size: 847.1 MB
Files List:
2    View torrent files >
Uploader:
nehalpuja
Torrent added: September 10, 2018, 3:30 pm
IMDB: http://www.imdb.com/title/tt5164214
Users rating: ---, not rated. please login to rate.

Download Oceans 8 2018 Movies BRRip x264 5.1 with Sample ☻rDX☻ torrent



Torrent Description

Oceans 8 2018 Movies BRRip x264 5.1 with Sample ☻rDX☻
===============================================================================================

SCREEN SHOTS:



or

http://iphonehosting.eu/2018/8/a/iphonex/1.html

File size : 839 MiB
Duration : 1 h 50 min
Overall bit rate mode : Constant
Overall bit rate : 1 065 kb/s
Movie name : Oceans 8 2018 Movies BRRip x264 5.1 ☻rDX☻

Video
ID : 2
Format : AVC
Format/Info : Advanced Video Codec
Format profile :
Format settings, CABAC : Yes
Format settings, ReFrames : 2 frames
Format settings, GOP : M=1, N=12
Codec ID : V_MPEG4/ISO/AVC
Duration : 1 h 50 min
Bit rate mode : Constant
Bit rate : 682 kb/s
Width : 720 pixels
Height : 304 pixels
Display aspect ratio : 2.35:1
Frame rate mode : Constant
Frame rate : 23.976 FPS
Color space : YUV
Chroma subsampling : 4:2:0
Bit depth : 8 bits
Scan type : Progressive
Bits/(Pixel*Frame) : 0.130
Stream size : 520 MiB (62%)
Title : ☻rDX☻
Default : Yes
Forced : No

Audio
ID : 1
Format : AC-3
Format/Info : Audio Coding 3
Mode extension : CM (complete main)
Format settings, Endianness : Big
Codec ID : A_AC3
Duration : 1 h 50 min
Bit rate mode : Constant
Bit rate : 384 kb/s
Channel(s) : 6 channels
Channel positions : Front: L C R, Side: L R, LFE
Sampling rate : 48.0 kHz
Frame rate : 31.250 FPS (1536 spf)
Bit depth : 16 bits
Compression mode : Lossy
Stream size : 303 MiB (36%)
Title : ☻rDX☻
Default : Yes
Forced : No



IMDB : http://www.imdb.com/title/tt5164214


Download Oceans 8 2018 Movies BRRip x264 5.1 with Sample ☻rDX☻ torrent


Related Torrents


Comments   (please login to add your comment!)


Home - Browse Torrents

Made with love by an Extratorrent Fan!