extratorrent - A Fan Made Alternative Login   |   Register
Important Information
Registrations are open now
-------------------------------------

Please click here to register with Extratorrent2 to recieve latest updates, add bookmarks and to post comments.

Friends
Friends

1) ProxyFix

Extratorrent2 > Categories > Movies > I Am Vengeance 2018 1080p WEB-DL DD 5.1 x264 [MW] torrent


Browse Movies torrents

I Am Vengeance 2018 1080p WEB-DL DD 5.1 x264 [MW] torrent


Download torrent: Download I Am Vengeance 2018 1080p WEB-DL DD 5.1 x264 [MW] torrent Magnet link Bookmark Torrent: I Am Vengeance 2018 1080p WEB-DL DD 5.1 x264 [MW]   I Am Vengeance 2018 1080p WEB-DL DD 5.1 x264 [MW] torrent
Info hash: EEB854137EA9613E09D40BF09A3F632CE929E211
Category: Categories > Movies
Trackers:
View all torrent trackers >
Health:
 seeds: 27 ,  leechers: 7 |  Update >
Torrent language: English English
Total Size: 1.9 GB
Files List:
1    View torrent files >
Uploader:
moviezworldz
Torrent added: September 2, 2018, 5:20 pm
Tags: Action, Action
Users rating: ---, not rated. please login to rate.

Download I Am Vengeance 2018 1080p WEB-DL DD 5.1 x264 [MW] torrent



Torrent Description





General
Format : Matroska
Format version : Version 4 / Version 2
File size : 1.90 GiB
Duration : 1 h 33 min
Overall bit rate : 2 907 kb/s

Video
ID : 1
Format : AVC
Format/Info : Advanced Video Codec
Format profile :
Format settings : CABAC / 4 Ref Frames
Format settings, CABAC : Yes
Format settings, RefFrames : 4 frames
Codec ID : V_MPEG4/ISO/AVC
Duration : 1 h 33 min
Bit rate : 2 600 kb/s
Width : 1 912 pixels
Height : 848 pixels
Display aspect ratio : 2.25:1
Frame rate mode : Constant
Frame rate : 23.976 (24000/1001) FPS
Color space : YUV
Chroma subsampling : 4:2:0
Bit depth : 8 bits
Scan type : Progressive
Bits/(Pixel*Frame) : 0.067
Stream size : 1.65 GiB (87%)
Writing library : x264 core 155 r2901 7d0ff22
Default : Yes
Forced : No

Audio
ID : 3
Format : AC-3
Format/Info : Audio Coding 3
Codec ID : A_AC3
Duration : 1 h 33 min
Bit rate mode : Constant
Bit rate : 384 kb/s
Channel(s) : 6 channels
Channel positions : Front: L C R, Side: L R, LFE
Sampling rate : 48.0 kHz
Frame rate : 31.250 FPS (1536 SPF)
Bit depth : 16 bits
Compression mode : Lossy
Stream size : 257 MiB (13%)
Language : English
Service kind : Complete Main
Default : Yes
Forced : No

Text
ID : 2
Format : UTF-8
Codec ID : S_TEXT/UTF8
Codec ID/Info : UTF-8 Plain Text
Duration : 1 h 28 min
Bit rate : 45 b/s
Count of elements : 1041
Stream size : 29.8 KiB (0%)
Language : English
Default : Yes
Forced : No

Menu
00:00:00.000 : en:1
00:05:33.959 : en:2
00:15:09.992 : en:3
00:24:41.981 : en:4
00:34:48.003 : en:5
00:44:04.976 : en:6
00:57:48.966 : en:7
01:07:56.990 : en:8
01:19:05.991 : en:9
01:29:40.959 : en:10


Click To Enlarge Image









Download I Am Vengeance 2018 1080p WEB-DL DD 5.1 x264 [MW] torrent


Related Torrents


Comments   (please login to add your comment!)

veruca james     1080p web dl dd5 1 h264     shame     the walking dead s08e02 720p web dl hevc     regression 1080p     jelly roll     feat     adelarioss     young and beautiful     jav tokyo     auroa     soe     nlsubs     avengers war infinity     serise     julesjordan     ind     no ratings     hindi tamil telugu     love songs     colette veronica rodriguez and nina north     deponia     pornfidelity     dev     


Home - Browse Torrents

Made with love by an Extratorrent Fan!