extratorrent - A Fan Made Alternative Login   |   Register
Important Information
Registrations are open now
-------------------------------------

Please click here to register with Extratorrent2 to recieve latest updates, add bookmarks and to post comments.

Friends
Friends

1) ProxyFix

Extratorrent2 > Categories > Movies > The Lone Ranger (2013) 1080p BluRay x264 Dual Audio [Hindi 640 Kbps DD5.1 - English DD5.1] - Esub ~ Ranvijay torrent


Browse Movies torrents

The Lone Ranger (2013) 1080p BluRay x264 Dual Audio [Hindi 640 Kbps DD5.1 - English DD5.1] - Esub ~ Ranvijay torrent


Download torrent: Download The Lone Ranger (2013) 1080p BluRay x264 Dual Audio [Hindi 640 Kbps DD5.1 - English DD5.1] - Esub ~ Ranvijay torrent Magnet link Bookmark Torrent: The Lone Ranger (2013) 1080p BluRay x264 Dual Audio [Hindi 640 Kbps DD5.1 - English DD5.1] - Esub ~ Ranvijay   The Lone Ranger (2013) 1080p BluRay x264 Dual Audio [Hindi 640 Kbps DD5.1 - English DD5.1] - Esub ~ Ranvijay torrent
Info hash: 2A95F07441C594ED948CE530F2BCE2970FD58071
Category: Categories > Movies
Trackers:
View all torrent trackers >
Health:
 seeds: 0 ,  leechers: 1 |  Update >
Torrent language: Hindi Hindi
Total Size: 5.9 GB
Files List:
3    View torrent files >
Uploader:
TheFighter
Torrent added: September 2, 2018, 5:20 pm
Tags: Ranvijay, ShareSpark
Users rating: ---, not rated. please login to rate.

Download The Lone Ranger (2013) 1080p BluRay x264 Dual Audio [Hindi 640 Kbps DD5.1 - English DD5.1] - Esub ~ Ranvijay torrent



Torrent Description







Click Here To Join My FaceBook Group

The Lone Ranger (2013) 1080p BluRay x264 Dual Audio [Hindi 640 Kbps DD5.1 - English DD5.1] - Esub ~ Ranvijay



Thanks To Marty McFly For Hindi Audio


Buy RDP Online



General
Format                                   : Matroska
Format version                           : Version 4 / Version 2
File size                                : 5.85 GiB
Duration                                 : 2 h 30 min
Overall bit rate                         : 5 564 kb/s
Movie name                               : The Lone Ranger (2013) 1080p BluRay x264 Dual Audio [Hindi DD5.1 - English DD5.1] - Esub ~ Ranvijay

Video
ID                                       : 1
Format                                   : AVC
Format/Info                              : Advanced Video Codec
Duration                                 : 2 h 29 min
Bit rate                                 : 4 500 kb/s
Width                                    : 1 920 pixels
Height                                   : 816 pixels
Display aspect ratio                     : 2.35:1
Frame rate mode                          : Constant
Frame rate                               : 23.976 (24000/1001) FPS
Color space                              : YUV
Chroma subsampling                       : 4:2:0
Bit depth                                : 8 bits
Scan type                                : Progressive
Bits/(Pixel*Frame)                       : 0.120
Stream size                              : 4.70 GiB (80%)
Title                                    : ~Ranvijay~

Audio #1
ID                                       : 2
Format                                   : AC-3
Format/Info                              : Audio Coding 3
Codec ID                                 : A_AC3
Duration                                 : 2 h 30 min
Bit rate mode                            : Constant
Bit rate                                 : 640 kb/s
Channel(s)                               : 6 channels
Channel positions                        : Front: L C R, Side: L R, LFE
Sampling rate                            : 48.0 kHz
Frame rate                               : 31.250 FPS (1536 SPF)
Bit depth                                : 16 bits
Compression mode                         : Lossy
Delay relative to video                  : 417 ms
Stream size                              : 690 MiB (12%)
Title                                    : ~Ranvijay~
Language                                 : Hindi
Service kind                             : Complete Main
Default                                  : Yes
Forced                                   : Yes

Audio #2
ID                                       : 3
Format                                   : AC-3
Format/Info                              : Audio Coding 3
Codec ID                                 : A_AC3
Duration                                 : 2 h 29 min
Bit rate mode                            : Constant
Bit rate                                 : 448 kb/s
Channel(s)                               : 6 channels
Channel positions                        : Front: L C R, Side: L R, LFE
Sampling rate                            : 48.0 kHz
Frame rate                               : 31.250 FPS (1536 SPF)
Bit depth                                : 16 bits
Compression mode                         : Lossy
Delay relative to video                  : -83 ms
Stream size                              : 479 MiB (8%)
Title                                    : ~Ranvijay~
Language                                 : English
Service kind                             : Complete Main
Default                                  : No
Forced                                   : No

Text
ID                                       : 4
Format                                   : PGS
Muxing mode                              : zlib
Codec ID                                 : S_HDMV/PGS
Codec ID/Info                            : Picture based subtitle format used on BDs/HD-DVDs
Duration                                 : 2 h 20 min
Bit rate                                 : 30.3 kb/s
Count of elements                        : 3896
Stream size                              : 30.4 MiB (1%)
Title                                    : ~Ranvijay~
Language                                 : English
Default                                  : Yes
Forced                                   : Yes




















Download The Lone Ranger (2013) 1080p BluRay x264 Dual Audio [Hindi 640 Kbps DD5.1 - English DD5.1] - Esub ~ Ranvijay torrent


Related Torrents


Comments   (please login to add your comment!)

jab     the man uncle     atk vegas     saori oshiro     mandyflores     fast and furious 7 720p hindi     midtown madness     dark knight rises 1080p     vicilia vica     ita     remux     bbc one life     sherlock holmes in washington     anally retentive teens     hindi 2017 x264     xxx friends mom     usa     i s     bsb     woody wood pecker     18 candles     magy     judge judy     mindi mink     


Home - Browse Torrents

Made with love by an Extratorrent Fan!