extratorrent - A Fan Made Alternative Login   |   Register
Important Information
Registrations are open now
-------------------------------------

Please click here to register with Extratorrent2 to recieve latest updates, add bookmarks and to post comments.

Friends
Friends

1) ProxyFix

Extratorrent2 > Categories > Movies > A Aa (2018) 720p Hindi Dubbed Original WEBHD x264 AAC 1.2GB [MovCr] torrent


Browse Movies torrents

A Aa (2018) 720p Hindi Dubbed Original WEBHD x264 AAC 1.2GB [MovCr] torrent


Download torrent: Download A Aa (2018) 720p Hindi Dubbed Original WEBHD x264 AAC 1.2GB [MovCr] torrent Magnet link Bookmark Torrent: A Aa (2018) 720p Hindi Dubbed Original WEBHD x264 AAC 1.2GB [MovCr]   A Aa (2018) 720p Hindi Dubbed Original WEBHD x264 AAC 1.2GB [MovCr] torrent
Info hash: 25CD5980A622736A442DAE0D3D2D3EE2D9AEDE80
Category: Categories > Movies
Trackers:
View all torrent trackers >
Health:
 seeds: 77 ,  leechers: 57 |  Update >
Torrent language: Hindi Hindi
Total Size: 1.2 GB
Files List:
1    View torrent files >
Uploader:
ictv
Torrent added: September 2, 2018, 5:20 pm
Tags: "Comedy", "Drama", "Romance"
IMDB: http://www.imdb.com/title/tt5684466
Users rating: ---, not rated. please login to rate.

Download A Aa (2018) 720p Hindi Dubbed Original WEBHD x264 AAC 1.2GB [MovCr] torrent



Torrent Description

Our Site www.movcr.com

A Aa (2018) 720p Hindi Dubbed Original WEBHD x264 AAC 1.2GB [MovCr]



http://www.imdb.com/title/tt5684466/




General
Unique ID : 20508193184688356365221248830405903774 (0xF6DBBFD7122578FF24F8B0C8764859E)
Complete name : www.MovCr.com - A Aa (2018) 720p Hindi Dubbed Original WEBHD x264 AAC 1.2GB [MovCr].mkv
Format : Matroska
Format version : Version 4 / Version 2
File size : 1.20 GiB
Duration : 2 h 32 min
Overall bit rate : 1 123 kb/s
Movie name : www.MovCr.com
Encoded date : UTC 2018-08-26 12:45:47
Writing application : mkvmerge v23.0.0 ('The Bride Said No') 64-bit
Writing library : libebml v1.3.6 + libmatroska v1.4.9 / IDMmkvlib0.1
Language : und

Video
ID : 1
Format : VP9
Codec ID : V_VP9
Duration : 2 h 32 min
Bit rate : 995 kb/s
Width : 1 280 pixels
Height : 720 pixels
Display aspect ratio : 16:9
Frame rate mode : Constant
Frame rate : 24.000 FPS
Bits/(Pixel*Frame) : 0.045
Stream size : 1.06 GiB (89%)
Title : www.MovCr.com
Default : Yes
Forced : No

Audio
ID : 2
Format : AAC
Format/Info : Advanced Audio Codec
Format profile : LC
Codec ID : A_AAC-2
Duration : 2 h 32 min
Bit rate : 126 kb/s
Channel(s) : 2 channels
Channel positions : Front: L R
Sampling rate : 44.1 kHz
Frame rate : 43.066 FPS (1024 SPF)
Compression mode : Lossy
Stream size : 137 MiB (11%)
Title : www.MovCr.com
Language : Hindi
Default : Yes
Forced : No












Download A Aa (2018) 720p Hindi Dubbed Original WEBHD x264 AAC 1.2GB [MovCr] torrent


Related Torrents


Comments   (please login to add your comment!)

1080p vyndros     amelie matis     macro toolworks     girls girls girls 2     hindi 2018     interracialpass     after effects crack     soc     iron man 2010     ebony     aubray     windows 8 key     tsujimoto     au pair girls 1972     2004     nipple torture     brazzers pain     windows10 pro x64     transformers prime beast hunters predacons rising     pillars of eternity 2     the commuter 2160p     au milf     turn 720p     hunt     


Home - Browse Torrents

Made with love by an Extratorrent Fan!