extratorrent - A Fan Made Alternative Login   |   Register
Important Information
Registrations are open now
-------------------------------------

Please click here to register with Extratorrent2 to recieve latest updates, add bookmarks and to post comments.

Friends
Friends

1) ProxyFix

Extratorrent2 > Categories > Movies > Raazi 2018 Hindi 720p BluRay DD 5.1 x264 ESub [MW] torrent


Browse Movies torrents

Raazi 2018 Hindi 720p BluRay DD 5.1 x264 ESub [MW] torrent


Download torrent: Download Raazi 2018 Hindi 720p BluRay DD 5.1 x264 ESub [MW] torrent Magnet link Bookmark Torrent: Raazi 2018 Hindi 720p BluRay DD 5.1 x264 ESub [MW]   Raazi 2018 Hindi 720p BluRay DD 5.1 x264 ESub [MW] torrent
Info hash: 3174B6E9EA3E87F850F02AEFFF7B6F9F47437621
Category: Categories > Movies
Trackers:
View all torrent trackers >
Health:
 seeds: 26 ,  leechers: 14 |  Update >
Torrent language: Hindi Hindi
Total Size: 1.2 GB
Files List:
1    View torrent files >
Uploader:
moviezworldz
Torrent added: August 11, 2018, 3:30 pm
Tags: Action, Drama, Thriller
Users rating: ---, not rated. please login to rate.

Download Raazi 2018 Hindi 720p BluRay DD 5.1 x264 ESub [MW] torrent



Torrent Description





General
Format : Matroska
Format version : Version 4 / Version 2
File size : 1.19 GiB
Duration : 2 h 18 min
Overall bit rate : 1 231 kb/s

Video
ID : 1
Format : AVC
Format/Info : Advanced Video Codec
Format profile :
Format settings : CABAC / 4 Ref Frames
Format settings, CABAC : Yes
Format settings, RefFrames : 4 frames
Codec ID : V_MPEG4/ISO/AVC
Duration : 2 h 18 min
Bit rate : 1 000 kb/s
Width : 1 280 pixels
Height : 532 pixels
Display aspect ratio : 2.40:1
Frame rate mode : Constant
Frame rate : 24.000 FPS
Color space : YUV
Chroma subsampling : 4:2:0
Bit depth : 8 bits
Scan type : Progressive
Bits/(Pixel*Frame) : 0.061
Stream size : 984 MiB (81%)
Writing library : x264 core 155 r2901 7d0ff22
Default : Yes
Forced : No

Audio
ID : 2
Format : AC-3
Format/Info : Audio Coding 3
Codec ID : A_AC3
Duration : 2 h 18 min
Bit rate mode : Constant
Bit rate : 224 kb/s
Channel(s) : 6 channels
Channel positions : Front: L C R, Side: L R, LFE
Sampling rate : 48.0 kHz
Frame rate : 31.250 FPS (1536 SPF)
Bit depth : 16 bits
Compression mode : Lossy
Stream size : 222 MiB (18%)
Language : Hindi
Service kind : Complete Main
Default : Yes
Forced : No

Text
ID : 3
Format : PGS
Muxing mode : zlib
Codec ID : S_HDMV/PGS
Duration : 2 h 8 min
Bit rate : 15.2 kb/s
Count of elements : 2542
Stream size : 14.0 MiB (1%)
Language : English
Default : Yes
Forced : No


Click To Enlarge Image









Download Raazi 2018 Hindi 720p BluRay DD 5.1 x264 ESub [MW] torrent


Related Torrents


Comments   (please login to add your comment!)

nude 1080p     boss baby 2017     diabolical dads swap their ace daughters     cpg     stepdaughter     2018 english     parties     joy     the fresh prince of bel air     i v     dvd5 ddr     angelawhite     xxx 720p     hot 2017     2017 october     mom is horny     infected city     blowjob amateur     game of thrones hdtv     got s07e04     her mom     sweet thing     tamasha     nadia     


Home - Browse Torrents

Made with love by an Extratorrent Fan!