extratorrent - A Fan Made Alternative Login   |   Register
Important Information
Registrations are open now
-------------------------------------

Please click here to register with Extratorrent2 to recieve latest updates, add bookmarks and to post comments.

Friends
Friends

1) ProxyFix

Extratorrent2 > Categories > Movies > Stephanie 2017 1080p BluRay x264 DTS [MW] torrent


Browse Movies torrents

Stephanie 2017 1080p BluRay x264 DTS [MW] torrent


Download torrent: Download Stephanie 2017 1080p BluRay x264 DTS [MW] torrent Magnet link Bookmark Torrent: Stephanie 2017 1080p BluRay x264 DTS [MW]   Stephanie 2017 1080p BluRay x264 DTS [MW] torrent
Info hash: AF646A4217C55A2185A1432986897ABAFC09D019
Category: Categories > Movies
Trackers:
View all torrent trackers >
Health:
 seeds: 4 ,  leechers: 5 |  Update >
Torrent language: English English
Total Size: 2.4 GB
Files List:
1    View torrent files >
Uploader:
moviezworldz
Torrent added: September 2, 2018, 5:19 pm
Tags: Drama, Fantasy, Horror
Users rating: ---, not rated. please login to rate.

Download Stephanie 2017 1080p BluRay x264 DTS [MW] torrent



Torrent Description





General
Format : Matroska
Format version : Version 4 / Version 2
File size : 2.42 GiB
Duration : 1 h 26 min
Overall bit rate : 4 021 kb/s

Video
ID : 1
Format : AVC
Format/Info : Advanced Video Codec
Format profile :
Format settings : CABAC / 4 Ref Frames
Format settings, CABAC : Yes
Format settings, RefFrames : 4 frames
Codec ID : V_MPEG4/ISO/AVC
Duration : 1 h 26 min
Bit rate : 3 400 kb/s
Width : 1 920 pixels
Height : 800 pixels
Display aspect ratio : 2.40:1
Frame rate mode : Constant
Frame rate : 23.976 (24000/1001) FPS
Color space : YUV
Chroma subsampling : 4:2:0
Bit depth : 8 bits
Scan type : Progressive
Bits/(Pixel*Frame) : 0.092
Stream size : 1.96 GiB (81%)
Writing library : x264 core 155 r2901 7d0ff22
Default : Yes
Forced : No

Audio
ID : 2
Format : DTS
Format/Info : Digital Theater Systems
Codec ID : A_DTS
Duration : 1 h 26 min
Bit rate mode : Constant
Bit rate : 756 kb/s
Channel(s) : 6 channels
Channel positions : Front: L C R, Side: L R, LFE
Sampling rate : 48.0 kHz
Frame rate : 93.750 FPS (512 SPF)
Bit depth : 16 bits
Compression mode : Lossy
Stream size : 466 MiB (19%)
Language : English
Default : Yes
Forced : No

Text
ID : 3
Format : VobSub
Muxing mode : zlib
Codec ID : S_VOBSUB
Codec ID/Info : Picture based subtitle format used on DVDs
Duration : 1 h 16 min
Bit rate : 3 191 b/s
Count of elements : 688
Stream size : 1.75 MiB (0%)
Language : English
Default : Yes
Forced : No

Menu
00:00:00.000 : en:00:00:00.000
00:04:55.420 : en:00:04:55.420
00:08:25.171 : en:00:08:25.171
00:12:01.512 : en:00:12:01.512
00:17:14.075 : en:00:17:13.991
00:20:51.208 : en:00:20:51.208
00:25:03.794 : en:00:25:03.794
00:29:14.002 : en:00:29:13.877
00:33:32.135 : en:00:33:32.135
00:37:58.276 : en:00:37:58.276
00:42:10.028 : en:00:42:10.027
00:47:49.867 : en:00:47:49.867
00:50:44.708 : en:00:50:44.708
00:56:03.986 : en:00:56:03.986
00:59:50.545 : en:00:59:50.545
01:02:06.014 : en:01:02:06.014
01:04:40.293 : en:01:04:40.168
01:07:17.283 : en:01:07:17.158
01:12:04.862 : en:01:12:04.779
01:18:18.777 : en:01:18:18.652


Click To Enlarge Image









Download Stephanie 2017 1080p BluRay x264 DTS [MW] torrent


Related Torrents


Comments   (please login to add your comment!)


Home - Browse Torrents

Made with love by an Extratorrent Fan!