extratorrent - A Fan Made Alternative Login   |   Register
Important Information
Registrations are open now
-------------------------------------

Please click here to register with Extratorrent2 to recieve latest updates, add bookmarks and to post comments.

Friends
Friends

1) ProxyFix

Extratorrent2 > Categories > Movies > The Punished 2018 1080p WEB-DL x264 [MW] torrent


Browse Movies torrents

The Punished 2018 1080p WEB-DL x264 [MW] torrent


Download torrent: Download The Punished 2018 1080p WEB-DL x264 [MW] torrent Magnet link Bookmark Torrent: The Punished 2018 1080p WEB-DL x264 [MW]   The Punished 2018 1080p WEB-DL x264 [MW] torrent
Info hash: CE2C3C63115EBB19953E95C4FB96F9028CAE732E
Category: Categories > Movies
Trackers:
View all torrent trackers >
Health:
 seeds: 12 ,  leechers: 2 |  Update >
Torrent language: English English
Total Size: 1.3 GB
Files List:
1    View torrent files >
Uploader:
moviezworldz
Torrent added: November 4, 2018, 4:30 pm
Tags: Horror, Horror
Users rating: ---, not rated. please login to rate.

Download The Punished 2018 1080p WEB-DL x264 [MW] torrent



Torrent Description





General
Format : Matroska
Format version : Version 4 / Version 2
File size : 1.31 GiB
Duration : 1 h 27 min
Overall bit rate : 2 137 kb/s

Video
ID : 1
Format : AVC
Format/Info : Advanced Video Codec
Format profile :
Format settings : CABAC / 4 Ref Frames
Format settings, CABAC : Yes
Format settings, RefFrames : 4 frames
Codec ID : V_MPEG4/ISO/AVC
Duration : 1 h 27 min
Bit rate : 2 000 kb/s
Width : 1 920 pixels
Height : 1 080 pixels
Display aspect ratio : 16:9
Frame rate mode : Constant
Frame rate : 23.976 (24000/1001) FPS
Color space : YUV
Chroma subsampling : 4:2:0
Bit depth : 8 bits
Scan type : Progressive
Bits/(Pixel*Frame) : 0.040
Stream size : 1.19 GiB (91%)
Writing library : x264 core 155 r2901 7d0ff22
Default : Yes
Forced : No

Audio
ID : 2
Format : AAC
Format/Info : Advanced Audio Codec
Format profile : LC
Codec ID : A_AAC-2
Duration : 1 h 27 min
Bit rate : 192 kb/s
Channel(s) : 2 channels
Channel positions : Front: L R
Sampling rate : 48.0 kHz
Frame rate : 46.875 FPS (1024 SPF)
Compression mode : Lossy
Stream size : 120 MiB (9%)
Language : English
Default : Yes
Forced : No


Click To Enlarge Image








Download The Punished 2018 1080p WEB-DL x264 [MW] torrent


Related Torrents


Comments   (please login to add your comment!)

the secret hindi dubbed     17 12 06     broly     young cheerleaders swap     anal japanese     the extend version     hound     heavy     discography     13 reasons why x265     dying     momsbangteens 21     stand up     rdx hindi     buffy the vampire     mack     mating     you     alana     plug     resident evil retribution 1080p bluray     carter cruise uma jolie angela white     tryteens ness     belly dancing and booty shaking     


Home - Browse Torrents

Made with love by an Extratorrent Fan!