extratorrent - A Fan Made Alternative Login   |   Register
Important Information
Registrations are open now
-------------------------------------

Please click here to register with Extratorrent2 to recieve latest updates, add bookmarks and to post comments.

Friends
Friends

1) ProxyFix

Extratorrent2 > Categories > Movies > Arizona 2018 1080p WEB-DL DD 5.1 x264 [MW] torrent


Browse Movies torrents

Arizona 2018 1080p WEB-DL DD 5.1 x264 [MW] torrent


Download torrent: Download Arizona 2018 1080p WEB-DL DD 5.1 x264 [MW] torrent Magnet link Bookmark Torrent: Arizona 2018 1080p WEB-DL DD 5.1 x264 [MW]   Arizona 2018 1080p WEB-DL DD 5.1 x264 [MW] torrent
Info hash: D7B8E3F790BF08CD22287157390ECED6DF8418B4
Category: Categories > Movies
Trackers:
View all torrent trackers >
Health:
 seeds: 8 ,  leechers: 7 |  Update >
Torrent language: English English
Total Size: 1.8 GB
Files List:
1    View torrent files >
Uploader:
moviezworldz
Torrent added: September 2, 2018, 5:20 pm
Tags: Comedy, Thriller
Users rating: ---, not rated. please login to rate.

Download Arizona 2018 1080p WEB-DL DD 5.1 x264 [MW] torrent



Torrent Description





General
Format : Matroska
Format version : Version 4 / Version 2
File size : 1.82 GiB
Duration : 1 h 23 min
Overall bit rate : 3 108 kb/s

Video
ID : 1
Format : AVC
Format/Info : Advanced Video Codec
Format profile :
Format settings : CABAC / 4 Ref Frames
Format settings, CABAC : Yes
Format settings, RefFrames : 4 frames
Codec ID : V_MPEG4/ISO/AVC
Duration : 1 h 23 min
Bit rate : 2 800 kb/s
Width : 1 920 pixels
Height : 804 pixels
Display aspect ratio : 2.40:1
Frame rate mode : Constant
Frame rate : 23.976 (24000/1001) FPS
Color space : YUV
Chroma subsampling : 4:2:0
Bit depth : 8 bits
Scan type : Progressive
Bits/(Pixel*Frame) : 0.076
Stream size : 1.59 GiB (88%)
Writing library : x264 core 155 r2901 7d0ff22
Default : Yes
Forced : No

Audio
ID : 3
Format : AC-3
Format/Info : Audio Coding 3
Codec ID : A_AC3
Duration : 1 h 23 min
Bit rate mode : Constant
Bit rate : 384 kb/s
Channel(s) : 6 channels
Channel positions : Front: L C R, Side: L R, LFE
Sampling rate : 48.0 kHz
Frame rate : 31.250 FPS (1536 SPF)
Bit depth : 16 bits
Compression mode : Lossy
Stream size : 230 MiB (12%)
Language : English
Service kind : Complete Main
Default : Yes
Forced : No

Text
ID : 2
Format : UTF-8
Codec ID : S_TEXT/UTF8
Codec ID/Info : UTF-8 Plain Text
Duration : 1 h 16 min
Bit rate : 69 b/s
Count of elements : 1266
Stream size : 39.3 KiB (0%)
Language : English
Default : Yes
Forced : No

Menu
00:00:00.000 : en:1
00:10:02.811 : en:2
00:25:15.764 : en:3
00:33:30.634 : en:4
00:40:43.274 : en:5
00:51:23.622 : en:6
01:00:21.243 : en:7
01:09:47.308 : en:8
01:18:57.566 : en:9


Click To Enlarge Image









Download Arizona 2018 1080p WEB-DL DD 5.1 x264 [MW] torrent


Related Torrents


Comments   (please login to add your comment!)

punjabi s     candide     major     ariel x mia li riley jenner     x265 1080p 2016     x art     captain america dual audio 720p     the predator     aika     ant man hindi 2015     pro 2017     i g     miya stone     blacksonblondes keisha     certified copy     bbc thirteen     1080p web x265     tamil hindi     outdoors     hindi     big tits     zazie     gotti     casey calvert everything     


Home - Browse Torrents

Made with love by an Extratorrent Fan!